Another (2012) + OVA [dual Audio] 1080P Hevc Bluury

  • Category Anime
  • Type Dual Audio
  • Language English
  • Total size 1.6 GB
  • Uploaded By ravarage
  • Downloads 176
  • Last checked 6 days ago
  • Date uploaded 1 week ago
  • Seeders 12
  • Leechers 4

Infohash : 22DE1F661A6FAE496F94E968F9173505796CE58F

information
Type: TV
Episodes: 12
Status: Finished Airing
Aired: Jan 10, 2012 to Mar 27, 2012
Premiered: Winter 2012
Producers: Lantis, Kadokawa Shoten, Toho, KlockWorx, Bandai Namco Live Creative, NTT Docomo
Licensors: Sentai Filmworks
Studios: P.A. Works
Source: Novel
Genres: Mystery, Horror, Supernatural, Thriller, School
Duration: 24 min. per ep.
Rating: R - 17+ (violence & profanity)

screenshots




[spoiler=mediainfo]
Video
ID : 1
Format : HEVC
Format/Info : High Efficiency Video Coding
Format profile : [email protected]@Main
Codec ID : V_MPEGH/ISO/HEVC
Duration : 24 min 42 s
Bit rate : 304 kb/s
Width : 1 920 pixels
Height : 1 080 pixels
Display aspect ratio : 16:9
Frame rate mode : Constant
Frame rate : 23.976 (24000/1001) FPS
Color space : YUV
Chroma subsampling : 4:2:0
Bit depth : 8 bits
Bits/(Pixel*Frame) : 0.006
Stream size : 53.7 MiB (46%)
Writing library : x265 2.4+27-e9e574bbed93:[Windows][MSVC 1910][64 bit] 8bit+10bit+12bit
Encoding settings : cpuid=1105919 / frame-threads=3 / numa-pools=8 / wpp / no-pmode / no-pme / no-psnr / no-ssim / log-level=2 / input-csp=1 / input-res=1920x1080 / interlace=0 / total-frames=75000000 / level-idc=0 / high-tier=1 / uhd-bd=0 / ref=4 / no-allow-non-conformance / no-repeat-headers / annexb / no-aud / no-hrd / info / hash=0 / no-temporal-layers / open-gop / min-keyint=23 / keyint=250 / bframes=8 / b-adapt=2 / b-pyramid / bframe-bias=0 / rc-lookahead=80 / lookahead-slices=0 / scenecut=40 / no-intra-refresh / ctu=64 / min-cu-size=8 / no-rect / no-amp / max-tu-size=32 / tu-inter-depth=1 / tu-intra-depth=1 / limit-tu=0 / rdoq-level=2 / dynamic-rd=0.00 / no-ssim-rd / signhide / no-tskip / nr-intra=0 / nr-inter=0 / no-constrained-intra / no-strong-intra-smoothing / max-merge=3 / limit-refs=2 / limit-modes / me=3 / subme=5 / merange=57 / temporal-mvp / weightp / weightb / no-analyze-src-pics / deblock=-2:-2 / no-sao / no-sao-non-deblock / rd=4 / no-early-skip / rskip / no-fast-intra / no-tskip-fast / no-cu-lossless / no-b-intra / rdpenalty=0 / psy-rd=0.35 / psy-rdoq=1.00 / no-rd-refine / analysis-mode=0 / no-lossless / cbqpoffs=0 / crqpoffs=0 / rc=crf / crf=27.0 / qcomp=0.60 / qpstep=4 / stats-write=0 / stats-read=0 / ipratio=1.40 / pbratio=1.30 / aq-mode=3 / aq-strength=1.00 / cutree / zone-count=0 / no-strict-cbr / qg-size=32 / no-rc-grain / qpmax=69 / qpmin=0 / sar=0 / overscan=0 / videoformat=5 / range=0 / colorprim=1 / transfer=2 / colormatrix=2 / chromaloc=0 / display-window=0 / max-cll=0,0 / min-luma=0 / max-luma=255 / log2-max-poc-lsb=8 / vui-timing-info / vui-hrd-info / slices=1 / opt-qp-pps / opt-ref-list-length-pps / no-multi-pass-opt-rps / scenecut-bias=0.05 / no-opt-cu-delta-qp / no-aq-motion / no-hdr / no-hdr-opt / no-dhdr10-opt / refine-level=5 / no-limit-sao / ctu-info=0
Default : Yes
Forced : No
Color range : Limited
Color primaries : BT.709

Audio #1
ID : 2
Format : AAC
Format/Info : Advanced Audio Codec
Format profile : LC
Codec ID : A_AAC-2
Duration : 24 min 42 s
Bit rate : 209 kb/s
Channel(s) : 2 channels
Channel positions : Front: L R
Sampling rate : 48.0 kHz
Frame rate : 46.875 FPS (1024 SPF)
Compression mode : Lossy
Stream size : 37.0 MiB (32%)
Language : Japanese
Default : Yes
Forced : No

Audio #2
ID : 3
Format : AAC
Format/Info : Advanced Audio Codec
Format profile : LC
Codec ID : A_AAC-2
Duration : 24 min 42 s
Bit rate : 132 kb/s
Channel(s) : 2 channels
Channel positions : Front: L R
Sampling rate : 48.0 kHz
Frame rate : 46.875 FPS (1024 SPF)
Compression mode : Lossy
Stream size : 23.6 MiB (20%)
Language : English
Default : No
Forced : No

Text #1
ID : 4
Format : ASS
Codec ID : S_TEXT/ASS
Codec ID/Info : Advanced Sub Station Alpha
Duration : 24 min 33 s
Bit rate : 138 b/s
Count of elements : 406
Compression mode : Lossless
Stream size : 25.0 KiB (0%)
Title : Full Subtitles [Underwater modified]
Language : English
Default : Yes
Forced : No

Text #2
ID : 5
Format : ASS
Codec ID : S_TEXT/ASS
Codec ID/Info : Advanced Sub Station Alpha
Duration : 23 min 9 s
Bit rate : 30 b/s
Count of elements : 54
Compression mode : Lossless
Stream size : 5.22 KiB (0%)
Title : Signs & Songs
Language : zxx
Default : No
Forced : No

Menu
00:00:00.000 : :Prologue
00:01:32.342 : :Opening
00:03:01.973 : :Part A
00:09:56.971 : :Part B
00:23:01.463 : :Ending
00:24:31.011 : :Preview
[/spoiler]

Files:

Another (2012) + OVA [dual Audio] 1080P Hevc Bluury
  • Torrent Downloaded From Katcr.co - Kickasstorrents.txt (0.1 KB)
  • NCED.mkv (4.5 MB)
  • NCOP.mkv (12.4 MB)
  • Special clip.mkv (20.5 MB)
  • Another 11 Makeup.mkv (109.2 MB)
  • Another 10 Glass eye.mkv (110.9 MB)
  • Another 05 Build limbs.mkv (113.2 MB)
  • Another 03 Bone work.mkv (115.7 MB)
  • Another 01 Rough sketch.mkv (115.9 MB)
  • Another 07 Sphere joint.mkv (116.0 MB)
  • OVA Another 00 The Other.mkv (118.3 MB)
  • Another 02 Blueprint.mkv (120.5 MB)
  • Another 04 Put flesh.mkv (124.5 MB)
  • Another 09 Body paint.mkv (127.6 MB)
  • Another 06 Face to face.mkv (128.4 MB)
  • Another 08 Hair stand.mkv (164.5 MB)
  • Another 12 Stand by oneself.mkv (181.3 MB)

There are currently no comments. Feel free to leave one :)

Code:

  • udp://tracker.coppersurfer.tk:6969/announce
  • http://ipv4.tracker.harry.lu:80/announce
  • http://tracker.vanitycore.co:6969/announce
  • udp://tracker.opentrackr.org:1337/announce
  • udp://tracker.leechers-paradise.org:6969/announce
  • udp://9.rarbg.me:2720/announce
  • udp://eddie4.nl:6969/announce
  • udp://tracker.zer0day.to:1337/announce
  • udp://p4p.arenabg.ch:1337/announce
  • udp://tracker.internetwarriors.net:1337/announce